#TITLE:MAMA;
#SUBTITLE:Expi3nze;
#ARTIST:EXO-K;
#TITLETRANSLIT:;
#SUBTITLETRANSLIT:;
#ARTISTTRANSLIT:;
#CREDIT:;
#BANNER:bn.png;
#BACKGROUND:bg.png;
#LYRICSPATH:;
#CDTITLE:cdtitle.png;
#MUSIC:MAMA.mp3;
#OFFSET:-0.467;
#SAMPLESTART:100.000;
#SAMPLELENGTH:12.000;
#SELECTABLE:YES;
#BPMS:0.000=90.000,0.500=45.000,0.667=180.000,1.000=90.000,2.000=45.000,2.167=180.000,2.500=90.000,3.500=45.000,3.667=180.000,4.000=45.000,4.167=180.000,4.500=45.000,4.667=180.000,5.000=90.000,6.000=45.000,6.167=180.000,6.500=90.000,8.500=45.000,8.667=180.000,9.000=90.000,10.000=45.000,10.167=180.000,10.500=90.000,16.500=45.000,16.667=180.000,17.000=90.000,18.000=45.000,18.167=180.000,18.500=90.000,19.500=45.000,19.667=180.000,20.000=45.000,20.167=180.000,20.500=45.000,20.667=180.000,21.000=90.000,22.000=45.000,22.167=180.000,22.500=45.000,22.667=180.000,23.000=90.000,24.500=45.000,24.667=180.000,25.000=90.000,26.000=45.000,26.167=180.000,26.500=90.000,40.000=180.000,40.750=360.098,41.000=360.000,41.500=720.196,42.000=720.000,43.000=719.804,43.500=360.098,43.750=180.000,44.000=90.000,108.000=135.000,120.000=90.000,128.000=135.000,134.000=90.000,137.000=180.000,137.750=360.098,138.000=360.000,139.000=359.967,139.750=180.000,140.000=90.000,187.000=180.000,189.000=90.000,222.000=45.000,222.167=180.000,222.500=90.000,223.500=45.000,223.667=180.000,224.000=45.000,224.167=180.000,224.500=45.000,224.667=180.000,225.000=90.000,226.000=45.000,226.167=180.000,226.500=90.000,228.500=45.000,228.667=180.000,229.000=90.000,230.000=45.000,230.167=180.000,230.500=90.000;
#STOPS:;
#BGCHANGES:;
// cache tags:
#FIRSTBEAT:1.000;
#LASTBEAT:236.000;
#SONGFILENAME:Songs/Expi3nze 4th Collection/MAMA (EXO-K)/MAMA.sm;
#HASMUSIC:1;
#HASBANNER:1;
#MUSICLENGTH:153.263;
// end cache tags

//---------------dance-single - ----------------
#NOTES:
     dance-single:
     :
     Hard:
     16:
     1.000,0.943,1.000,0.372,0.597,583.000,362.000,57.000,0.000,151.000:
0000
0000
0000
0000
0110
1100
0011
0000
0000
0000
1100
0110
0011
0000
0000
0000
,
1110
0000
1110
0000
0011
0110
1100
0000
0000
0000
1100
1100
0011
1100
1100
0000
,
0010
0010
0010
0000
1100
0110
0011
0000
0000
0000
1010
1010
1001
0000
0000
0000
,
2000
0000
0210
3010
2320
0000
3230
0000
0302
0000
0100
0100
0100
0000
0000
0000
,
0103
0100
0010
0000
0210
0010
1021
0300
0230
0000
1302
1020
1003
0000
0030
0000
,
0200
0000
0000
0000
0020
0300
0000
0000
0132
0000
0100
0000
0100
0000
0003
0000
0000
0000
0000
0000
1110
0000
0000
0000
0011
0000
0110
0000
1100
0000
0000
0000
,
0010
0010
0010
0000
1200
1020
1331
0000
1000
0000
1200
1020
1331
0000
0000
0000
,
2000
0000
0210
3010
2320
0000
3230
0000
2300
0000
0210
0010
0320
0000
0100
0000
,
0100
0100
0100
0000
0200
0030
0000
0000
3011
0000
0000
0000
0000
0000
0011
0000
,
0011
0000
0000
0000
0311
0000
0000
0000
0011
0000
0000
0011
0000
0000
0011
0000
,
0022
0000
0000
0000
0000
0000
0000
0033
,
1100
1100
1100
0000
1110
0000
0011
0110
1100
0000
1110
0000
0101
0101
0101
0000
,
1100
0110
0011
0000
1110
0000
1000
1010
1010
0000
1110
0000
0011
0110
1100
0000
,
1001
1001
1001
0000
1101
0000
1000
1010
1010
0000
1110
0000
0011
0110
1100
0000
,
0101
0101
0100
0000
0111
0000
1000
1010
1010
0000
1110
0000
0001
0010
0100
1000
,
0011
0011
0011
0000
1110
0000
0011
0110
1100
0000
1110
0000
0101
0000
0101
0000
,
1100
0110
0011
0000
1110
0000
1000
1010
1010
0000
1110
0000
0101
0000
0101
0000
,
1100
0110
0011
0000
1110
0000
1000
1010
1010
0000
1110
0000
0101
0000
0101
0000
,
2001
0011
0100
0000
0111
0000
0010
0010
0010
0000
0111
0000
0010
0010
0100
0010
,
3111
0010
1000
0010
1110
0010
1000
1000
0000
1000
1000
0000
1110
0000
1010
0000
,
0010
0010
0100
0000
0111
0000
0010
0010
0010
0100
0001
0000
0111
0010
0010
0000
,
1000
0100
0010
0000
1110
0000
0010
0100
1000
0010
0010
0100
1110
0000
0010
0000
,
2010
0010
0010
0000
0111
0000
0010
0010
0010
0000
0111
0000
0010
0010
0100
0001
,
3111
0100
0001
0100
0111
0000
0100
0100
0000
0001
0010
0000
0101
0100
0100
0000
,
0001
0001
0010
0000
0111
0000
0010
0010
0010
0000
0110
0000
1110
0100
0100
0000
,
0010
0010
0010
0000
1110
0000
0100
0100
0100
0000
0001
0100
1110
0100
0001
0000
,
2010
0010
0010
0000
0111
0000
0010
0010
0010
0000
0111
0000
0010
0010
0100
0001
,
3211
0000
0000
1001
0000
0000
1010
0000
0000
1000
0000
0000
1011
0000
0000
0001
0000
0000
0010
0000
0000
0011
0000
0000
1001
0000
0000
1001
0000
0000
1010
0000
,
0000
1000
0000
0000
0011
0000
0000
0000
0000
0000
0010
0000
0000
0000
0000
0000
1321
0000
0000
1001
0000
0000
1001
0000
0000
0001
0000
0000
1101
0000
0000
0001
,
0000
0000
1001
0000
0000
1001
0000
0000
1101
0000
0000
1100
0000
0000
1000
0000
0000
0001
0000
0000
1100
0000
0000
1100
0000
0000
1130
0000
0000
0000
0000
0000
,
0101
0000
0101
0000
1000
0100
0010
0001
1100
0001
1100
0001
0010
0100
1000
0010
,
0101
0010
1000
0001
1100
0001
0010
0100
1001
0010
0001
0000
1100
0000
1100
0000
,
2010
0000
0000
0010
0000
0000
0100
0000
0000
0001
0000
0000
0111
0000
0000
0001
0000
0000
0100
0000
0000
0001
0000
0000
0101
0000
0000
0100
0000
0000
0100
0000
,
0000
0010
0000
0000
0111
0000
0000
0010
0000
0000
0010
0000
0000
0000
0000
0000
3002
0000
0000
0000
0000
0000
0000
0000
0000
0000
0000
0000
0000
0000
0000
0000
,
0000
0000
2200
0000
0000
0000
0000
3300
,
1103
1100
1100
0000
1110
0000
0011
0110
1100
0000
1110
0000
0101
0101
0101
0000
,
1100
0110
0011
0000
1110
0000
1000
1010
1010
0000
1110
0000
0011
0110
1100
0000
,
1001
1001
1001
0000
1101
0000
1000
1010
1010
0000
1110
0000
2010
0000
0210
3010
,
2320
0000
3230
0000
2310
0000
0010
0010
0010
0000
3010
0000
1010
0000
1010
0000
,
1010
1010
1000
0000
1110
0000
0011
0110
1100
0000
1110
0000
0101
0101
0101
0000
,
1100
0110
0011
0000
1110
0000
1000
1010
1010
0000
1110
0000
0011
0110
1100
0000
,
1001
1001
1001
0000
1101
0000
1000
1010
1010
0000
1110
0000
0101
0101
0001
0000
,
2010
0010
0010
0000
0111
0000
0010
0010
3010
0000
1110
0000
0001
0010
0100
1000
,
0011
0011
0011
0000
1110
0000
0011
0110
1100
0000
1110
0000
0101
0000
0101
0000
,
1100
0110
0011
0000
1110
0000
1000
1010
1010
0000
1110
0000
0101
0000
0101
0000
,
1100
0110
0011
0000
1110
0000
1000
1010
1010
0000
1110
0000
0101
0000
0101
0000
,
2001
0011
0100
0000
0111
0000
0010
0010
0010
0000
0111
0000
0010
0000
0000
0000
,
0000
0000
0000
0000
3101
0101
0001
0000
0111
0000
0011
0110
1100
0000
1110
0000
,
0101
0101
0101
0000
1100
0110
0011
0000
1110
0000
1000
1010
1010
0000
1110
0000
,
0011
0110
1100
0000
1001
1001
1001
0000
1101
0000
1000
1010
1010
0000
1110
0000
,
0011
0110
1100
0000
0101
0101
0100
0000
0111
0000
1000
1010
1010
0000
1110
0000
,
0001
0010
0100
1000
0011
0011
0011
0000
1110
0000
0011
0110
1100
0000
1110
0000
,
0101
0000
0101
0000
1100
0110
0011
0000
1110
0000
1000
1010
1010
0000
1110
0000
,
0101
0000
0101
0000
1100
0110
0011
0000
1110
0000
1000
1010
1010
0000
1110
0000
,
0101
0000
0101
0000
2210
0010
0310
0000
0211
0000
0310
0010
0210
0000
0310
0000
,
0210
0010
0010
0300
3101
0101
0001
0000
0000
0000
1010
1010
1000
0000
0000
0000
,
1110
0000
1110
0000
0011
0110
1100
0000
0000
0000
1100
1100
0011
1100
1100
0000
,
0010
0010
0010
0000
1100
0110
0011
0000
0000
0000
1010
1010
1000
0000
0000
0000
,
2000
0000
0210
3010
2320
0000
3230
0000
0320
0000
0000
0000
0000
0000
0000
0000
,
0030
0000
0000
0000
,
0000
0000
0000
0000
,
0000
0000
0000
0000
,
0000
0000
0000
0000
,
0000
0000
0000
0000
,
0000
0000
0000
0000
,
0000
0000
0000
0000
,
0000
0000
0000
0000
,
0000
0000
0000
0000
,
0000
0000
0000
0000
,
0000
0000
0000
0000
,
0000
0000
0000
0000
,
0000
0000
0000
0000
,
0000
0000
0000
0000
;
